<?xml version="1.0" standalone="no"?>
<!DOCTYPE svg PUBLIC "-//W3C//DTD SVG 1.1//EN" "http://www.w3.org/Graphics/SVG/1.1/DTD/svg11.dtd" >
<!--
2013-9-15: Created.
-->
<svg xmlns="http://www.w3.org/2000/svg">
<metadata>
Created by FontForge 20120731 at Sun Sep 15 15:49:39 2013
 By Tyler Wanlass
Created by Tyler Wanlass with FontForge 2.0 (http://fontforge.sf.net)
</metadata>
<defs>
<font id="picto-foundry-multimedia" horiz-adv-x="512" >
  <font-face 
    font-family="picto-foundry-multimedia"
    font-weight="500"
    font-stretch="normal"
    units-per-em="512"
    panose-1="2 0 6 3 0 0 0 0 0 0"
    ascent="448"
    descent="-64"
    bbox="-0.468875 -64.1363 512.438 448.16"
    underline-thickness="25.6"
    underline-position="-51.2"
    unicode-range="U+F100-F150"
  />
    <missing-glyph />
    <glyph glyph-name="uniF100" unicode="&#xf100;" horiz-adv-x="439" 
d="M33 385v18h379v-18h-379zM68 430v18h309v-18h-309zM430 357c5 0 9 -4 9 -9v-403c0 -5 -4 -9 -9 -9h-421c-5 0 -9 4 -9 9v403c0 5 4 9 9 9h421zM421 -46v385h-403v-385h403zM116 6c-19 0 -32 8 -38 20c-5 11 -3 24 6 37c8 12 21 22 36 29c13 6 27 9 40 9c8 0 15 -1 21 -4
v145v0c0 4 3 8 7 9l152 39c5 1 10 -1 11 -6v-3v0v-166c8 -21 -11 -49 -43 -64c-13 -6 -26 -9 -39 -9c-19 0 -32 7 -38 19c-5 11 -3 25 6 38c8 12 21 22 36 29c13 6 26 9 39 9c8 0 15 -1 21 -4v91l-134 -39v-106c8 -21 -11 -49 -43 -64c-13 -6 -27 -9 -40 -9zM333 242v1v27
l-134 -35v-31zM301 68c26 12 38 32 33 42c-3 6 -11 9 -22 9c-10 0 -21 -3 -32 -8c-12 -6 -23 -14 -29 -23c-5 -7 -6 -14 -4 -19c3 -6 11 -9 22 -9c10 0 21 3 32 8zM99 52c-5 -7 -7 -14 -5 -19c3 -6 11 -9 22 -9c10 0 21 3 32 8c26 12 39 32 34 42c-3 6 -11 9 -22 9
c-10 0 -21 -3 -32 -8c-12 -6 -23 -14 -29 -23z" />
    <glyph glyph-name="uniF101" unicode="&#xf101;" horiz-adv-x="405" 
d="M123 443c86 22 143 -30 158 -87c26 -99 -13 -203 -113 -301c-75 -73 -156 -117 -159 -119l-9 17c3 2 322 176 262 398c-19 69 -82 86 -134 73c-54 -14 -104 -63 -86 -138l-18 -4c-15 62 9 138 99 161zM367 303c-21 0 -39 18 -39 39s18 38 39 38s38 -17 38 -38
s-17 -39 -38 -39zM367 255c21 0 38 -17 38 -38s-17 -38 -38 -38s-39 17 -39 38s18 38 39 38z" />
    <glyph glyph-name="uniF102" unicode="&#xf102;" 
d="M465 448c26 0 47 -21 47 -47v-334c0 -26 -21 -47 -47 -47h-418c-26 0 -47 21 -47 47v334c0 26 21 47 47 47h418zM493 67v334c0 15 -13 28 -28 28h-418c-15 0 -28 -13 -28 -28v-334c0 -15 13 -28 28 -28h418c15 0 28 13 28 28zM235 354c0 14 7 21 21 21s21 -7 21 -21
s-7 -21 -21 -21s-21 7 -21 21zM104 234c0 14 7 21 21 21s21 -7 21 -21s-7 -21 -21 -21s-21 7 -21 21zM104 132c0 14 7 21 21 21s21 -7 21 -21s-7 -21 -21 -21s-21 7 -21 21zM327 354c0 14 7 21 21 21s21 -7 21 -21s-7 -21 -21 -21s-21 7 -21 21zM420 354c0 14 7 21 21 21
s21 -7 21 -21s-7 -21 -21 -21s-21 7 -21 21zM154 394c26 0 46 -21 46 -47v-1c0 -26 -20 -47 -46 -47h-58c-26 0 -46 21 -46 47v1c0 26 20 47 46 47h58zM182 346v1c0 15 -13 28 -28 28h-58c-15 0 -28 -13 -28 -28v-1c0 -15 13 -28 28 -28h58c15 0 28 13 28 28zM219 91v199
h235v-199h-235zM383 272v-72h53v72h-53zM383 181v-71h53v71h-53zM309 272v-72h56v72h-56zM309 181v-71h56v71h-56zM238 272v-72h52v72h-52zM238 181v-71h52v71h-52z" />
    <glyph glyph-name="uniF103" unicode="&#xf103;" 
d="M61 231h451v-287h-494v287h7l-25 114l468 103l27 -121zM452 423l-24 -5l29 -14zM399 411l-59 -13l120 -58l10 2l-8 39zM311 392l-59 -13l121 -58l59 13zM224 373l-59 -13l121 -58l58 13zM136 353l-55 -12l109 -61l67 15zM25 329l6 -28l72 -40l60 13l-109 61zM76 255
l-40 22l7 -29zM491 -35v245h-452v-245h452z" />
    <glyph glyph-name="uniF104" unicode="&#xf104;" 
d="M256 448c141 0 256 -115 256 -256s-115 -256 -256 -256s-256 115 -256 256s115 256 256 256zM257 237c-26 0 -46 -20 -46 -46s20 -47 46 -47s47 21 47 47s-21 46 -47 46zM248 429c-59 -2 -113 -25 -153 -62l124 -124c8 6 18 10 29 12v174zM82 353
c-12 -13 -23 -27 -32 -43l152 -84c1 1 2 3 3 4zM256 -45c131 0 237 106 237 237c0 127 -100 231 -226 237v-174c32 -5 56 -31 56 -64c0 -36 -30 -66 -66 -66s-65 30 -65 66c0 6 1 12 3 18l-154 84c-15 -31 -22 -65 -22 -101c0 -131 106 -237 237 -237z" />
    <glyph glyph-name="uniF105" unicode="&#xf105;" 
d="M466 448c26 0 46 -20 46 -46v-239c0 -26 -20 -46 -46 -46h-154c0 -11 4 -57 63 -107c3 -3 4 -6 3 -10s-5 -6 -9 -6h-226c-4 0 -8 2 -9 6s0 8 3 10c54 42 60 94 61 107h-152c-26 0 -46 20 -46 46v239c0 26 20 46 46 46h420zM346 12c-48 49 -52 91 -52 105h-77
c-1 -14 -6 -61 -50 -105h179zM494 163v239c0 15 -13 28 -28 28h-420c-15 0 -28 -13 -28 -28v-239c0 -15 13 -28 28 -28h420c15 0 28 13 28 28zM256 323c34 38 76 6 76 -30c0 -43 -75 -75 -76 -102c0 26 -76 60 -76 102c0 35 34 67 76 30z" />
    <glyph glyph-name="uniF106" unicode="&#xf106;" 
d="M466 448c25 0 46 -20 46 -46v-239c0 -26 -20 -46 -46 -46h-154c0 -11 4 -57 63 -107c3 -3 4 -6 3 -10s-5 -6 -9 -6h-226c-4 0 -8 2 -9 6s0 8 3 10c54 42 60 94 61 107h-152c-26 0 -46 20 -46 46v239c0 26 20 46 46 46h420zM346 12c-48 49 -52 91 -52 105h-77
c-1 -14 -6 -61 -50 -105h179zM494 163v239c0 15 -13 28 -28 28h-420c-15 0 -28 -13 -28 -28v-239c0 -15 13 -28 28 -28h420c15 0 28 13 28 28zM259 276l-78 7l149 66l-65 -149z" />
    <glyph glyph-name="uniF107" unicode="&#xf107;" 
d="M466 448c26 0 46 -20 46 -46v-239c0 -26 -20 -46 -46 -46h-154c0 -11 4 -57 63 -107c3 -3 4 -6 3 -10s-5 -6 -9 -6h-226c-4 0 -8 2 -9 6s0 8 3 10c54 42 60 94 61 107h-152c-26 0 -46 20 -46 46v239c0 26 20 46 46 46h420zM346 12c-48 49 -52 91 -52 105h-77
c-1 -14 -6 -61 -50 -105h179zM494 163v239c0 15 -13 28 -28 28h-420c-15 0 -28 -13 -28 -28v-239c0 -15 13 -28 28 -28h420c15 0 28 13 28 28zM207 216v136l117 -68z" />
    <glyph glyph-name="uniF108" unicode="&#xf108;" 
d="M466 448c26 0 46 -20 46 -46v-239c0 -26 -20 -46 -46 -46h-154c0 -11 4 -57 63 -107c3 -3 4 -6 3 -10s-5 -6 -9 -6h-226c-4 0 -8 2 -9 6s0 8 3 10c54 42 60 94 61 107h-152c-26 0 -46 20 -46 46v239c0 26 20 46 46 46h420zM346 12c-48 49 -52 91 -52 105h-77
c-1 -14 -6 -61 -50 -105h179zM494 163v239c0 15 -13 28 -28 28h-420c-15 0 -28 -13 -28 -28v-239c0 -15 13 -28 28 -28h420c15 0 28 13 28 28zM346 307c1 0 3 -1 3 -2s0 -3 -1 -4l-51 -41l18 -60c0 -1 -1 -3 -2 -4h-2h-1l-54 34l-54 -34c-1 -1 -2 -1 -3 0s-2 3 -2 4l18 60
l-51 41c-1 1 -1 3 -1 4s2 2 3 2l64 3l23 61c1 2 5 3 6 0l23 -61z" />
    <glyph glyph-name="uniF109" unicode="&#xf109;" 
d="M466 448c26 0 46 -20 46 -46v-239c0 -26 -20 -46 -46 -46h-154c0 -11 4 -57 63 -107c3 -3 4 -6 3 -10s-5 -6 -9 -6h-226c-4 0 -8 2 -9 6s0 8 3 10c54 42 60 94 61 107h-152c-26 0 -46 20 -46 46v239c0 26 20 46 46 46h420zM346 12c-48 49 -52 91 -52 105h-77
c-1 -14 -6 -61 -50 -105h179zM494 163v239c0 15 -13 28 -28 28h-420c-15 0 -28 -13 -28 -28v-239c0 -15 13 -28 28 -28h420c15 0 28 13 28 28z" />
    <glyph glyph-name="uniF10A" unicode="&#xf10a;" horiz-adv-x="425" 
d="M378 402c26 0 47 -21 47 -47v-161c0 -26 -21 -47 -47 -47h-156v-175l47 48l14 -14l-70 -70l-70 71l13 13l46 -46v173h-155c-26 0 -47 21 -47 47v161c0 26 21 47 47 47h63c6 7 41 46 65 46h75c24 0 60 -39 66 -46h62zM406 194v161c0 16 -12 28 -28 28h-71l-6 7
c-21 24 -43 39 -51 39h-75c-8 0 -30 -15 -51 -39l-6 -7h-71c-16 0 -28 -12 -28 -28v-161c0 -16 12 -28 28 -28h331c16 0 28 12 28 28zM212 358c44 0 80 -35 80 -79s-36 -80 -80 -80s-79 36 -79 80s35 79 79 79zM212 218c33 0 61 28 61 61s-28 60 -61 60s-60 -27 -60 -60
s27 -61 60 -61z" />
    <glyph glyph-name="uniF10B" unicode="&#xf10b;" 
d="M511 372v-267c1 -2 1 -4 1 -6c0 -39 -115 -70 -256 -70s-256 31 -256 70c0 2 0 4 1 6v267c-1 2 -1 4 -1 6c0 39 115 70 256 70s256 -31 256 -70c0 -2 0 -4 -1 -6zM432 68c50 14 61 26 61 29c0 0 -1 2 -1 6v0v248c-17 -11 -46 -21 -81 -28l9 -30c16 -4 28 -19 28 -36
c0 -21 -16 -37 -37 -37s-37 16 -37 37c0 17 11 32 27 36l-8 26c-37 -6 -80 -10 -127 -10v-49c16 -4 28 -19 28 -36c0 -21 -17 -37 -38 -37s-37 16 -37 37c0 17 12 32 28 36v49c-46 0 -89 4 -126 10l-8 -35c16 -4 28 -19 28 -36c0 -21 -17 -37 -38 -37s-37 16 -37 37
c0 17 12 32 28 36l9 38c-36 7 -65 17 -83 29v-248v0v-3c0 -3 10 -18 60 -32c47 -13 109 -20 176 -20s129 7 176 20zM103 266c-10 0 -18 -8 -18 -18s8 -19 18 -19s19 9 19 19s-9 18 -19 18zM256 243c-10 0 -18 -9 -18 -19s8 -19 18 -19s19 9 19 19s-9 19 -19 19zM411 276
c-10 0 -19 -9 -19 -19s9 -19 19 -19s18 9 18 19s-8 19 -18 19zM493 376c1 1 0 2 0 2c0 3 -11 18 -61 32c-47 13 -109 19 -176 19s-129 -6 -176 -19c-50 -14 -61 -29 -61 -32c0 0 -1 -1 0 -2h1v0c4 -5 18 -17 60 -29c47 -13 109 -20 176 -20s129 7 176 20c42 11 56 24 60 29
v0h1z" />
    <glyph glyph-name="uniF10C" unicode="&#xf10c;" 
d="M292 286c0 -21 -17 -38 -38 -38s-38 17 -38 38s17 38 38 38s38 -17 38 -38zM256 448c141 0 256 -159 256 -159s-115 -169 -256 -169s-256 169 -256 169s115 159 256 159zM163 285c0 -51 42 -93 93 -93s93 42 93 93s-42 93 -93 93s-93 -42 -93 -93zM77 96
c5 -7 10 -14 15 -24c7 -13 7 -28 0 -40c-8 -14 -24 -22 -41 -22s-33 8 -41 22c-7 12 -6 27 1 40c5 10 10 17 15 24c8 13 15 23 20 41l5 17l5 -17c5 -18 13 -28 21 -41z" />
    <glyph glyph-name="uniF10D" unicode="&#xf10d;" 
d="M512 195l-319 -252v120l-193 -117v499l193 -118v121z" />
    <glyph glyph-name="uniF10E" unicode="&#xf10e;" 
d="M512 195l-319 -252v121l-193 -118v499l193 -118v121zM23 -14l192 118v-114l260 205l-260 206v-115l-192 118v-418z" />
    <glyph glyph-name="uniF10F" unicode="&#xf10f;" 
d="M210 408c30 0 54 -24 54 -54v-362c0 -30 -24 -54 -54 -54h-156c-30 0 -54 24 -54 54v362c0 30 24 54 54 54h1c6 21 22 40 43 40h68c21 0 37 -19 43 -40h1zM98 430c-10 0 -19 -10 -24 -22h116c-5 12 -14 22 -24 22h-68zM246 -8v362c0 20 -16 36 -36 36h-9h-8h-123h-8h-8
c-20 0 -36 -16 -36 -36v-362c0 -20 16 -36 36 -36h156c20 0 36 16 36 36zM279 348h233v-369h-233v17h215v335h-215v17zM300 265v38h39v-38h-39zM369 265v38h38v-38h-38zM435 265v38h38v-38h-38zM300 23v39h39v-39h-39zM369 23v39h38v-39h-38zM435 23v39h38v-39h-38z" />
    <glyph glyph-name="uniF110" unicode="&#xf110;" horiz-adv-x="428" 
d="M48 361c0 19 9 28 28 28s28 -9 28 -28s-9 -28 -28 -28s-28 9 -28 28zM48 278c0 19 9 28 28 28s28 -9 28 -28s-9 -28 -28 -28s-28 9 -28 28zM48 194c0 19 9 28 28 28s28 -9 28 -28s-9 -28 -28 -28s-28 9 -28 28zM48 107c0 19 9 28 28 28s28 -9 28 -28s-9 -28 -28 -28
s-28 9 -28 28zM48 18c0 19 9 28 28 28s28 -9 28 -28s-9 -28 -28 -28s-28 9 -28 28zM324 361c0 19 9 28 28 28s28 -9 28 -28s-9 -28 -28 -28s-28 9 -28 28zM324 278c0 19 9 28 28 28s28 -9 28 -28s-9 -28 -28 -28s-28 9 -28 28zM324 194c0 19 9 28 28 28s28 -9 28 -28
s-9 -28 -28 -28s-28 9 -28 28zM324 107c0 19 9 28 28 28s28 -9 28 -28s-9 -28 -28 -28s-28 9 -28 28zM352 46c8 0 15 -3 20 -8s8 -12 8 -20c0 -7 -5 -13 -13 -19s-16 -9 -24 -9c-12 0 -19 9 -19 28c0 8 3 15 8 20s12 8 20 8zM382 448c13 0 24 -5 33 -14s13 -20 13 -33v-418
c0 -13 -4 -24 -13 -33s-20 -14 -33 -14h-73c-1 12 -5 23 -14 33s-20 18 -34 24s-30 8 -47 8c-26 0 -48 -6 -66 -19s-28 -28 -29 -46h-72c-13 0 -24 5 -33 14s-14 20 -14 33v418c0 13 5 24 14 33s20 14 33 14h73c3 -17 13 -31 31 -42s39 -17 63 -17s45 6 63 17s28 25 31 42
h74zM410 -17v418c0 8 -4 15 -9 20s-11 8 -19 8h-60c-5 -12 -12 -21 -23 -30s-23 -16 -38 -21s-30 -7 -47 -7c-25 0 -47 5 -67 16s-33 24 -41 42h-59c-8 0 -15 -3 -20 -8s-8 -12 -8 -20v-418c0 -8 3 -15 8 -20s12 -8 20 -8h57c6 19 19 35 39 47s44 18 71 18s50 -6 70 -18
s34 -28 40 -47h58c8 0 14 3 19 8s9 12 9 20zM137 209v144h154v-144h-154zM137 41v135h154v-135h-154z" />
    <glyph glyph-name="uniF111" unicode="&#xf111;" 
d="M466 403c26 0 46 -21 46 -47v-157c0 -26 -20 -47 -46 -47h-326c-26 0 -46 21 -46 47v40c-17 -7 -50 -23 -66 -53c-11 -21 -12 -46 -3 -73c17 -48 61 -65 96 -72c48 -9 95 0 113 10l-50 36l11 15l74 -54l-51 -83l-16 9l36 58c-18 -8 -46 -14 -76 -14c-15 0 -30 1 -45 4
c-56 11 -95 41 -110 85c-11 32 -10 62 4 88c22 41 67 59 83 64v97c0 26 20 47 46 47h62c6 7 41 45 64 45h74c23 0 58 -38 64 -45h62zM303 203c43 0 78 35 78 78s-35 79 -78 79s-79 -36 -79 -79s36 -78 79 -78zM303 341c33 0 59 -27 59 -60s-26 -59 -59 -59s-60 26 -60 59
s27 60 60 60z" />
    <glyph glyph-name="uniF112" unicode="&#xf112;" 
d="M466 403c26 0 46 -21 46 -47v-157c0 -26 -20 -47 -46 -47h-326c-26 0 -46 21 -46 47v40c-17 -7 -50 -23 -66 -53c-11 -21 -12 -46 -3 -73c16 -48 61 -65 96 -72c48 -9 95 0 113 10l-50 36l11 15l74 -54l-51 -83l-16 9l36 58c-18 -8 -46 -14 -76 -14c-15 0 -30 1 -45 4
c-56 11 -95 41 -110 85c-11 32 -10 62 4 88c22 41 67 59 83 64v97c0 26 20 47 46 47h62c6 7 41 45 64 45h74c23 0 58 -38 64 -45h62zM493 199v157c0 15 -12 28 -27 28h-62h-8l-6 7c-21 24 -42 38 -50 38h-74c-8 0 -29 -14 -50 -38l-6 -7h-8h-62c-15 0 -27 -13 -27 -28v-157
c0 -15 12 -28 27 -28h326c15 0 27 13 27 28zM303 360c43 0 78 -36 78 -79s-35 -78 -78 -78s-79 35 -79 78s36 79 79 79zM303 222c33 0 59 26 59 59s-26 60 -59 60s-60 -27 -60 -60s27 -59 60 -59z" />
    <glyph glyph-name="uniF113" unicode="&#xf113;" 
d="M404 250c59 0 108 -49 108 -108s-49 -107 -108 -107h-296c-59 0 -108 48 -108 107s49 108 108 108h145c15 25 6 39 -16 66c-8 10 -17 21 -25 34c-26 43 14 83 39 98l9 -16c-2 -1 -55 -34 -32 -72c7 -12 15 -22 23 -32c19 -24 38 -46 24 -78h129zM404 53c49 0 89 40 89 89
s-40 89 -89 89h-296c-49 0 -89 -40 -89 -89s40 -89 89 -89h296zM127 185v-33h34v-18h-34v-33h-19v33h-32v18h32v33h19zM209 176v18h37v-18h-37zM265 176v18h37v-18h-37zM363 166c0 12 6 19 18 19s19 -7 19 -19s-7 -19 -19 -19s-18 7 -18 19zM414 120c0 12 6 18 18 18
s19 -6 19 -18s-7 -19 -19 -19s-18 7 -18 19z" />
    <glyph glyph-name="uniF114" unicode="&#xf114;" horiz-adv-x="510" 
d="M177 151c21 0 38 -18 38 -39s-17 -39 -38 -39s-39 18 -39 39s18 39 39 39zM177 89c12 0 22 11 22 23s-10 22 -22 22s-23 -10 -23 -22s11 -23 23 -23zM499 352l-15 15l-12 -13l15 -15l-12 -11l-15 15c-4 -2 -8 -4 -13 -5l-155 -155c6 -12 8 -24 8 -38
c0 -38 -22 -71 -55 -85c0 -4 -1 -9 -1 -13c-6 -63 -58 -111 -121 -111c-4 0 -8 1 -12 1c-67 6 -116 66 -110 133c6 64 58 111 121 111h3c14 33 46 55 84 55c14 0 27 -3 39 -9l156 156c1 4 3 8 5 11l-19 19l11 12l19 -19l12 13l-18 18l12 11l17 -18l2 1c7 7 17 11 26 11
s19 -4 26 -11c14 -14 14 -38 0 -52l-1 -1l14 -14zM239 74c28 12 46 40 46 71c0 42 -34 76 -76 76c-30 0 -58 -18 -70 -46l-4 -10h-10h-3c-56 0 -101 -42 -106 -97c-3 -29 6 -56 24 -78s44 -35 73 -38c3 0 7 -1 10 -1c56 0 101 43 106 98c0 4 1 7 1 11l-1 10zM282 200
l142 142c-3 2 -7 4 -10 7s-5 6 -7 10l-142 -142c6 -5 12 -11 17 -17zM455 360l30 31c8 8 8 21 0 29c-4 4 -8 6 -14 6s-11 -2 -15 -6l-30 -30c-4 -4 -7 -9 -7 -15s3 -11 7 -15s8 -6 14 -6s11 2 15 6z" />
    <glyph glyph-name="uniF115" unicode="&#xf115;" 
d="M500 207c9 -12 14 -27 12 -42l-12 -98c-3 -28 -27 -50 -56 -50c-1 0 -3 1 -4 1c-5 -18 -11 -28 -19 -33c-10 -6 -20 -2 -34 2c-8 2 -18 5 -31 7c-10 1 -17 -1 -23 -6c-12 -11 -15 -34 -15 -42h-19c0 2 0 37 21 56c10 9 23 12 38 10c14 -2 25 -4 34 -7s17 -5 20 -3
c2 1 5 5 9 18c-28 6 -47 33 -44 62l12 98c4 31 32 53 63 49h3v2c0 109 -89 198 -198 198s-198 -89 -198 -198v-2h2c31 4 58 -18 62 -49l11 -98c2 -15 -2 -30 -11 -42s-23 -19 -38 -21l-11 -1c-2 0 -4 -1 -6 -1c-29 0 -53 21 -56 50l-12 99c-3 28 15 52 41 60c0 2 -1 3 -1 5
c0 120 97 217 217 217s217 -97 217 -217v-6c10 -3 19 -9 26 -18zM63 211l-11 -2c-21 -2 -35 -20 -33 -41l11 -98c2 -20 21 -36 42 -34l11 2c10 1 19 6 25 14s9 17 8 27l-12 98c-2 19 -18 34 -37 34h-4zM493 167c1 10 -2 20 -8 28s-15 13 -25 14l-11 2h-4
c-19 0 -35 -14 -37 -33l-12 -98c-2 -21 12 -40 33 -42l10 -2c21 -2 40 13 42 33z" />
    <glyph glyph-name="uniF116" unicode="&#xf116;" 
d="M500 207c9 -12 14 -27 12 -42l-12 -98c-3 -28 -27 -50 -56 -50c-2 0 -5 1 -7 1h-6c-12 -12 -57 -49 -124 -49h-6c-6 -13 -20 -22 -35 -22c-21 0 -37 16 -37 37s16 38 37 38c20 0 36 -15 38 -34c50 -1 87 22 105 36c-8 4 -15 9 -20 16c-9 12 -14 27 -12 42l12 98
c4 31 32 53 63 49h3v2c0 109 -89 198 -198 198s-198 -89 -198 -198v-2h2c31 4 58 -18 62 -49l11 -98c2 -15 -2 -30 -11 -42s-23 -19 -38 -21l-11 -1c-2 0 -4 -1 -6 -1c-29 0 -53 21 -56 50l-12 99c-2 15 3 29 12 41c7 9 18 16 29 19c0 2 -1 3 -1 5c0 120 97 217 217 217
s217 -97 217 -217v-6c10 -3 19 -9 26 -18zM63 211l-11 -2c-21 -2 -35 -20 -33 -41l11 -98c2 -20 21 -36 42 -34l11 2c10 1 19 6 25 14s9 17 8 27l-12 98c-2 19 -18 34 -37 34h-4zM266 -34c10 0 19 8 19 18s-9 19 -19 19s-18 -9 -18 -19s8 -18 18 -18zM493 167
c1 10 -2 20 -8 28s-15 13 -25 14l-11 2h-4c-19 0 -35 -14 -37 -33l-12 -98c-1 -10 2 -20 8 -28s15 -13 25 -14l10 -2c21 -2 40 13 42 33z" />
    <glyph glyph-name="uniF117" unicode="&#xf117;" 
d="M256 448c48 0 272 -401 255 -418c-9 -9 -133 -13 -256 -13c-122 0 -244 4 -254 14c-19 19 207 417 255 417zM255 36c117 0 205 4 236 8c-10 28 -46 103 -102 198c-73 124 -118 178 -133 187c-15 -9 -61 -63 -134 -186c-58 -98 -92 -171 -101 -198c29 -5 112 -9 234 -9z
M256 271c77 0 137 -82 140 -86l4 -6l-5 -5c-3 -3 -63 -70 -139 -70s-136 67 -139 70l-5 5l4 6c3 4 63 86 140 86zM256 122c56 0 104 43 120 58c-15 18 -64 73 -120 73s-105 -55 -120 -73c16 -15 64 -58 120 -58zM256 231c24 0 44 -19 44 -43s-20 -44 -44 -44s-44 20 -44 44
s20 43 44 43z" />
    <glyph glyph-name="uniF118" unicode="&#xf118;" 
d="M446 182l66 -108c0 -26 -21 -48 -47 -48h-418c-26 0 -47 22 -47 48l8 13v4h2l56 91v219c0 26 22 47 48 47h284c26 0 48 -21 48 -47v-219zM85 401v-219h342v219c0 16 -13 28 -29 28h-284c-16 0 -29 -12 -29 -28zM77 163l-44 -72h446l-44 72h-358zM465 45c14 0 26 11 28 24
l-2 3h-470l-2 -3c2 -13 14 -24 28 -24h418z" />
    <glyph glyph-name="uniF119" unicode="&#xf119;" 
d="M434 370v-335h-357v335h357zM412 57v291h-313v-291h313zM0 448h512v-491h-512v491zM490 -21v447h-468v-447h468z" />
    <glyph glyph-name="uniF11A" unicode="&#xf11a;" horiz-adv-x="259" 
d="M129 58c-43 0 -78 36 -78 79v233c0 43 35 78 78 78h1c43 0 78 -35 78 -78v-233c0 -43 -35 -79 -78 -79h-1zM69 370v-90h121v90c0 33 -27 59 -60 59h-1c-33 0 -60 -26 -60 -59zM69 261v-52h121v52h-121zM69 190v0v-53c0 -33 27 -60 60 -60h1c33 0 60 27 60 60v53h-121z
M259 136c0 -68 -53 -124 -120 -128l-1 -53h103v-19h-224v19h103v53c-67 4 -120 60 -120 128v94h19v-94c0 -61 49 -110 110 -110h1c61 0 110 49 110 110v94h19v-94z" />
    <glyph glyph-name="uniF11B" unicode="&#xf11b;" 
d="M256 448c141 0 256 -115 256 -256c0 -111 -71 -209 -177 -243l-8 -3l-4 8c-17 33 -42 51 -68 51s-50 -19 -67 -51l-4 -8l-8 3c-105 35 -176 132 -176 243c0 141 115 256 256 256zM347 323c-10 -10 -10 -27 0 -37s26 -10 36 0c5 5 7 11 7 18s-2 14 -7 19s-11 7 -18 7
s-13 -2 -18 -7zM384 196c0 -14 12 -26 26 -26s25 12 25 26s-11 25 -25 25s-26 -11 -26 -25zM256 375c-14 0 -26 -12 -26 -26s12 -25 26 -25s26 11 26 25s-12 26 -26 26zM128 196c0 14 -12 25 -26 25s-25 -11 -25 -25s11 -26 25 -26s26 12 26 26zM129 286c10 -10 26 -10 36 0
s10 27 0 37c-5 5 -11 7 -18 7s-13 -2 -18 -7s-7 -12 -7 -19s2 -13 7 -18z" />
    <glyph glyph-name="uniF11C" unicode="&#xf11c;" 
d="M397 272c-9 -9 -20 -14 -32 -14s-24 5 -33 14c-18 18 -18 47 0 65c9 9 21 13 33 13s23 -4 32 -13s14 -21 14 -33s-5 -23 -14 -32zM347 286c10 -10 26 -10 36 0c5 5 7 11 7 18s-2 13 -7 18s-11 8 -18 8s-13 -3 -18 -8c-10 -10 -10 -26 0 -36zM256 448
c141 0 256 -115 256 -256c0 -111 -71 -209 -177 -243l-8 -3l-4 8c-17 33 -42 51 -68 51s-50 -19 -67 -51l-4 -8l-8 3c-105 35 -176 132 -176 243c0 141 115 256 256 256zM337 -29c93 34 155 122 155 221c0 130 -106 236 -236 236s-236 -106 -236 -236
c0 -99 62 -187 154 -221c20 35 49 54 81 54s62 -19 82 -54zM102 242c25 0 46 -21 46 -46s-21 -46 -46 -46s-46 21 -46 46s21 46 46 46zM102 170c14 0 26 12 26 26s-12 25 -26 25s-25 -11 -25 -25s11 -26 25 -26zM410 242c25 0 46 -21 46 -46s-21 -46 -46 -46s-46 21 -46 46
s21 46 46 46zM410 170c14 0 25 12 25 26s-11 25 -25 25s-26 -11 -26 -25s12 -26 26 -26zM147 350c12 0 24 -4 33 -13c18 -18 18 -47 0 -65c-9 -9 -21 -14 -33 -14s-23 5 -32 14s-14 20 -14 32s5 24 14 33s20 13 32 13zM166 286c10 10 10 27 0 37c-5 5 -12 7 -19 7
s-13 -2 -18 -7s-7 -12 -7 -19s2 -13 7 -18c10 -10 27 -10 37 0zM256 395c25 0 46 -21 46 -46s-21 -46 -46 -46s-46 21 -46 46s21 46 46 46v0zM256 324c14 0 26 11 26 25s-12 26 -26 26s-26 -12 -26 -26s12 -25 26 -25z" />
    <glyph glyph-name="uniF11D" unicode="&#xf11d;" horiz-adv-x="449" 
d="M28 192v256h19v-256h-19zM28 -64v144h19v-144h-19zM150 304v144h19v-144h-19zM150 -64v244h19v-244h-19zM273 192v256h18v-256h-18zM273 -64v142h18v-142h-18zM403 378v70h18v-70h-18zM403 -64v310h18v-310h-18zM37 173c21 0 37 -16 37 -37s-16 -37 -37 -37
s-37 16 -37 37s16 37 37 37zM37 117c10 0 19 9 19 19s-9 19 -19 19s-18 -9 -18 -19s8 -19 18 -19zM158 280c21 0 37 -16 37 -37s-16 -37 -37 -37s-37 16 -37 37s16 37 37 37zM158 224c10 0 19 9 19 19s-9 19 -19 19s-18 -9 -18 -19s8 -19 18 -19zM282 173
c21 0 37 -16 37 -37s-16 -37 -37 -37s-37 16 -37 37s16 37 37 37zM282 117c10 0 18 9 18 19s-8 19 -18 19s-19 -9 -19 -19s9 -19 19 -19zM412 346c21 0 37 -16 37 -37s-16 -37 -37 -37s-37 16 -37 37s16 37 37 37zM412 291c10 0 19 8 19 18s-9 19 -19 19s-18 -9 -18 -19
s8 -18 18 -18z" />
    <glyph glyph-name="uniF11E" unicode="&#xf11e;" 
d="M372 356l140 61v-243l-140 61v-38c0 -30 -23 -54 -53 -54h-265c-30 0 -54 24 -54 54v197c0 30 24 54 54 54h265c30 0 53 -24 53 -54v-38z" />
    <glyph glyph-name="uniF11F" unicode="&#xf11f;" 
d="M372 356l140 61v-243l-140 61v-38c0 -30 -23 -54 -53 -54h-265c-30 0 -54 24 -54 54v197c0 30 24 54 54 54h265c30 0 53 -24 53 -54v-38zM354 342v52c0 20 -15 36 -35 36h-265c-20 0 -36 -16 -36 -36v-197c0 -20 16 -36 36 -36h265c20 0 35 16 35 36v52v14v66v13z
M494 202v187l-122 -52v-82z" />
    <glyph glyph-name="uniF120" unicode="&#xf120;" horiz-adv-x="508" 
d="M378 197c-60 66 -121 66 -141 64v-252v0c4 -28 -30 -58 -77 -69c-11 -2 -21 -4 -31 -4c-35 0 -63 14 -68 36c-6 29 28 61 76 72c11 2 22 4 32 4c19 0 36 -5 48 -12l2 4v328l11 -2c1 0 152 -29 164 -162l2 -28zM440 277c37 -1 68 -30 68 -67s-31 -68 -69 -68l-1 1h-135
l-3 18h138h2c27 1 49 22 49 49c0 26 -22 48 -49 48h-21l3 21c1 5 1 11 1 16c0 80 -55 135 -137 135c-52 0 -99 -29 -122 -74l-5 -10h-11h-3c-59 0 -94 -35 -94 -93c0 -7 1 -14 3 -21l4 -19l-19 -4c-12 -2 -21 -12 -21 -24c0 -13 12 -24 25 -24h2h94c1 -6 3 -12 4 -18h-98
l-1 -1c-24 0 -44 19 -44 43c0 21 16 39 36 43c-2 8 -4 16 -4 25c0 61 38 111 113 111h3c26 50 77 84 138 84c98 0 155 -69 155 -153c0 -6 0 -12 -1 -18z" />
    <glyph glyph-name="uniF121" unicode="&#xf121;" 
d="M509 281l3 -28l-19 21c-60 66 -121 66 -141 64v-253v0c4 -28 -29 -58 -76 -69c-11 -2 -22 -4 -32 -4c-35 0 -63 14 -68 36c-7 29 28 61 76 72c11 2 22 4 32 4c19 0 37 -5 49 -12l1 5v328l11 -2c2 0 152 -28 164 -162zM322 59c9 9 14 18 12 25c-3 13 -24 21 -50 21
c-9 0 -19 -1 -28 -3c-20 -4 -38 -13 -50 -24c-9 -9 -14 -19 -12 -26c3 -13 24 -21 50 -21c9 0 19 1 28 3c20 5 38 14 50 25zM364 357c26 0 73 -7 122 -50c-23 78 -104 107 -134 115v-65h12zM276 359c0 -46 -42 -82 -79 -115c-26 -22 -50 -43 -51 -60c0 -4 -4 -8 -8 -8v0
c-4 0 -8 4 -8 8c0 16 -25 38 -51 61c-37 33 -79 70 -79 114c0 43 28 88 75 88c20 0 41 -9 62 -26c22 22 44 27 59 27c43 0 80 -42 80 -89z" />
    <glyph glyph-name="uniF122" unicode="&#xf122;" 
d="M509 285l3 -28l-18 21c-60 66 -120 66 -140 64v-251h-1c4 -28 -28 -59 -75 -69c-11 -2 -22 -4 -32 -4c-35 0 -62 14 -67 36c-6 29 27 61 75 72c11 2 22 3 32 3c19 0 36 -4 48 -11l1 4v326l11 -2c2 0 151 -28 163 -161zM323 64c9 9 14 18 12 25c-3 12 -23 22 -49 22
c-9 0 -19 -1 -28 -3c-20 -4 -37 -14 -49 -25c-9 -9 -14 -18 -12 -25c3 -12 23 -21 49 -21c9 0 18 1 27 3c20 4 38 13 50 24zM365 361c26 0 73 -7 121 -50c-23 78 -103 106 -132 114v-65c3 0 7 1 11 1zM0 378v19h285v-19h-285zM0 314v18h285v-18h-285zM0 250v18h285v-18h-285
zM0 185v19h285v-19h-285z" />
    <glyph glyph-name="uniF123" unicode="&#xf123;" 
d="M511 71c7 -31 -30 -67 -83 -79c-12 -3 -24 -4 -35 -4c-38 0 -69 15 -74 39c-7 31 30 67 83 79c12 3 24 4 35 4c21 0 40 -5 53 -13v241l-298 -77v-233c0 -1 1 -1 1 -2c7 -32 -30 -67 -83 -79c-12 -3 -24 -4 -35 -4c-38 0 -69 15 -74 39c-7 31 30 67 83 79c12 3 24 4 35 4
c21 0 40 -5 53 -13l-1 314l339 82v-375c0 -1 1 -1 1 -2zM160 -6c10 10 15 19 13 27c-3 14 -26 24 -54 24c-10 0 -21 -2 -31 -4c-22 -5 -41 -15 -54 -27c-10 -10 -15 -19 -13 -27c3 -14 26 -24 54 -24c10 0 20 2 30 4c22 5 42 15 55 27zM192 282l298 77v63l-298 -72v-68z
M424 12c44 10 71 36 67 54c0 1 -1 2 -1 3v0v0c-5 12 -27 21 -53 21c-10 0 -20 -2 -30 -4c-22 -5 -42 -15 -55 -27c-10 -10 -15 -19 -13 -27c3 -14 26 -24 54 -24c10 0 21 2 31 4z" />
    <glyph glyph-name="uniF124" unicode="&#xf124;" horiz-adv-x="398" 
d="M395 253l3 -32l-22 24c-71 79 -142 78 -166 76v-299h-1c4 -33 -35 -70 -90 -82c-13 -3 -26 -4 -38 -4c-41 0 -74 17 -80 43c-8 34 33 72 90 85c13 3 26 4 38 4c23 0 42 -5 57 -14l2 5v389l13 -2c2 0 179 -35 194 -193zM173 -9c11 10 16 21 14 30c-3 15 -27 25 -58 25
c-11 0 -22 -1 -33 -4c-24 -5 -45 -16 -59 -29c-11 -10 -17 -21 -15 -30c3 -15 28 -25 59 -25c11 0 22 1 33 4c24 5 45 16 59 29zM223 344c30 0 86 -8 144 -59c-27 92 -122 126 -157 136v-78c4 0 8 1 13 1z" />
    <glyph glyph-name="uniF125" unicode="&#xf125;" 
d="M511 71c7 -31 -30 -67 -83 -79c-12 -3 -24 -4 -35 -4c-38 0 -69 15 -74 39c-7 31 30 67 83 79c12 3 24 4 35 4c21 0 40 -5 53 -13v241l-298 -77v-233c0 -1 1 -1 1 -2c7 -31 -30 -67 -83 -79c-12 -3 -24 -4 -35 -4c-38 0 -69 15 -74 39c-7 31 30 67 83 79c12 3 24 4 35 4
c21 0 40 -5 53 -13l-1 314l339 82v-375c0 -1 1 -1 1 -2z" />
    <glyph glyph-name="uniF126" unicode="&#xf126;" horiz-adv-x="398" 
d="M395 253l3 -33l-22 25c-71 79 -142 78 -166 76v-299h-1c4 -33 -35 -69 -90 -82c-13 -3 -26 -4 -38 -4c-41 0 -74 17 -80 43c-8 34 33 72 90 85c13 3 26 4 38 4c23 0 42 -5 57 -14l2 5v389l13 -2c2 0 179 -35 194 -193z" />
    <glyph glyph-name="uniF127" unicode="&#xf127;" horiz-adv-x="283" 
d="M236 448c26 0 47 -21 47 -47v-418c0 -26 -21 -47 -47 -47h-189c-26 0 -47 21 -47 47v418c0 26 21 47 47 47h189zM264 -17v418c0 15 -13 28 -28 28h-189c-15 0 -28 -13 -28 -28v-418c0 -15 13 -28 28 -28h189c15 0 28 13 28 28zM142 177c49 0 89 -40 89 -89
s-40 -88 -89 -88s-88 39 -88 88s39 89 88 89zM142 18c39 0 70 31 70 70s-31 70 -70 70s-70 -31 -70 -70s31 -70 70 -70zM44 211v193h196v-193h-196zM63 385v-155h158v155h-158z" />
    <glyph glyph-name="uniF128" unicode="&#xf128;" 
d="M509 242l3 -28l-19 20c-60 67 -122 68 -142 66v-255v0c4 -28 -30 -59 -77 -70c-11 -2 -22 -4 -32 -4c-35 0 -63 15 -68 37c-7 29 27 61 76 72c11 3 22 4 32 4c19 0 37 -4 49 -12l2 4v331l11 -2c2 0 153 -28 165 -163zM320 18c9 9 14 18 12 25c-3 13 -24 22 -50 22
c-9 0 -19 -1 -28 -3c-20 -5 -38 -14 -50 -25c-9 -9 -14 -18 -12 -25c3 -13 24 -22 50 -22c9 0 19 1 28 3c20 5 38 14 50 25zM363 319c26 0 74 -8 123 -51c-23 79 -105 108 -135 116v-66c3 0 8 1 12 1zM241 166c-2 -1 -4 -2 -6 -1l-86 54l-86 -54c-1 -1 -2 0 -3 0s-2 0 -3 1
c-2 1 -3 3 -2 5l29 97l-82 66c-2 1 -3 3 -2 5s3 4 5 4l102 5l37 97c2 4 8 4 10 0l37 -97l102 -5c2 0 3 -2 4 -4s1 -4 -1 -5l-82 -66l29 -97c1 -2 0 -4 -2 -5z" />
    <glyph glyph-name="uniF129" unicode="&#xf129;" horiz-adv-x="348" 
d="M232 -64v512h116v-512h-116zM0 -64v512h116v-512h-116z" />
    <glyph glyph-name="uniF12A" unicode="&#xf12a;" horiz-adv-x="348" 
d="M232 448h116v-512h-116v512zM328 -45v474h-77v-474h77zM0 -64v512h116v-512h-116zM19 429v-474h77v474h-77z" />
    <glyph glyph-name="uniF12B" unicode="&#xf12b;" 
d="M72 419c-36 0 -39 0 -39 10s4 10 39 10s40 0 40 -10s-4 -10 -40 -10zM465 403c26 0 47 -21 47 -47v-233c0 -26 -21 -46 -47 -46h-418c-26 0 -47 20 -47 46v233c0 26 21 47 47 47h80c6 7 41 45 64 45h130c23 0 58 -38 64 -45h24v16h19h18v-16h19zM83 282c15 0 28 13 28 28
s-13 28 -28 28s-28 -13 -28 -28s13 -28 28 -28zM256 161c51 0 93 42 93 93s-42 93 -93 93s-93 -42 -93 -93s42 -93 93 -93zM256 301c26 0 46 -21 46 -47s-20 -46 -46 -46s-47 20 -47 46s21 47 47 47z" />
    <glyph glyph-name="uniF12C" unicode="&#xf12c;" 
d="M465 403c26 0 47 -21 47 -47v-233c0 -26 -21 -46 -47 -46h-418c-26 0 -47 20 -47 46v233c0 26 21 47 47 47h80c6 7 41 45 64 45h130c23 0 58 -38 64 -45h24v16h19h18v-16h19zM493 123v233c0 15 -13 28 -28 28h-80h-8l-6 6c-21 24 -42 39 -50 39h-130
c-8 0 -29 -15 -50 -39l-6 -6h-8h-80c-15 0 -28 -13 -28 -28v-233c0 -15 13 -27 28 -27h418c15 0 28 12 28 27zM256 366c62 0 112 -50 112 -112s-50 -112 -112 -112s-112 50 -112 112s50 112 112 112zM256 161c51 0 93 42 93 93s-42 93 -93 93s-93 -42 -93 -93s42 -93 93 -93
zM72 419c-36 0 -39 0 -39 10s4 10 39 10s40 0 40 -10s-4 -10 -40 -10zM55 310c0 19 9 28 28 28s28 -9 28 -28s-9 -28 -28 -28s-28 9 -28 28zM256 301c26 0 46 -21 46 -47s-20 -46 -46 -46s-47 20 -47 46s21 47 47 47zM256 226c15 0 28 13 28 28s-13 28 -28 28
s-28 -13 -28 -28s13 -28 28 -28z" />
    <glyph glyph-name="uniF12D" unicode="&#xf12d;" 
d="M465 448c26 0 47 -21 47 -47v-418c0 -26 -21 -47 -47 -47h-418c-26 0 -47 21 -47 47v418c0 26 21 47 47 47h418zM493 -17v418c0 15 -13 28 -28 28h-59v-267h-108v267h-88v-267h-108v267h-55c-15 0 -28 -13 -28 -28v-418c0 -15 13 -28 28 -28h100v139h-45v50h108v-50h-45
v-139h177v139h-44v50h108v-50h-45v-139h104c15 0 28 13 28 28z" />
    <glyph glyph-name="uniF12E" unicode="&#xf12e;" 
d="M433 370v-334h-356v334h356zM411 348h-312v-247l117 117l96 -97l50 53l49 -59v233zM99 58h312v22l-50 61l-48 -52l-97 97l-117 -117v-11zM0 448h512v-490h-512v490zM490 -19v445h-468v-445h468zM340 208c-31 0 -56 24 -56 55s25 56 56 56s55 -25 55 -56s-24 -55 -55 -55z
M340 297c-18 0 -34 -16 -34 -34s16 -33 34 -33s33 15 33 33s-15 34 -33 34z" />
    <glyph glyph-name="uniF12F" unicode="&#xf12f;" horiz-adv-x="443" 
d="M0 448l443 -256l-443 -256v512z" />
    <glyph glyph-name="uniF130" unicode="&#xf130;" horiz-adv-x="443" 
d="M0 448l443 -256l-443 -256v512zM19 415v-446l386 223z" />
    <glyph glyph-name="uniF131" unicode="&#xf131;" 
d="M465 319c26 0 47 -20 47 -46v-233c0 -26 -21 -46 -47 -46h-418c-26 0 -47 20 -47 46v233c0 26 21 46 47 46h10l410 129l6 -18l-354 -111h346zM493 40v233c0 15 -13 28 -28 28h-418c-15 0 -28 -13 -28 -28v-233c0 -15 13 -28 28 -28h418c15 0 28 13 28 28zM141 212
c0 9 5 14 14 14s14 -5 14 -14s-5 -14 -14 -14s-14 5 -14 14zM141 91c0 9 5 14 14 14s14 -5 14 -14s-5 -14 -14 -14s-14 5 -14 14zM216 138c-8 0 -14 6 -14 14s6 14 14 14s14 -6 14 -14c0 -4 -1 -7 -4 -10s-6 -4 -10 -4zM95 166c4 0 7 -2 10 -5s4 -5 4 -9s-1 -7 -4 -10
s-6 -4 -10 -4v0c-8 0 -14 6 -14 14s6 14 14 14zM208 224c5 5 15 5 20 0c3 -3 4 -6 4 -10s-1 -7 -4 -10s-6 -4 -10 -4s-7 1 -10 4s-4 6 -4 10s1 7 4 10zM188 170c-4 0 -7 1 -10 4s-4 6 -4 10s1 7 4 10c5 5 15 5 20 0c3 -3 4 -6 4 -10s-1 -7 -4 -10s-6 -4 -10 -4zM113 194
c5 5 15 5 20 0c3 -3 4 -6 4 -10s-1 -7 -4 -10s-6 -4 -10 -4s-7 1 -10 4s-4 6 -4 10s1 7 4 10zM146 161c5 5 14 5 19 0c3 -3 4 -5 4 -9s-1 -7 -4 -10s-6 -4 -10 -4s-6 1 -9 4s-5 6 -5 10s2 6 5 9zM113 129c5 5 15 5 20 0c3 -3 4 -6 4 -10s-1 -7 -4 -10s-6 -4 -10 -4
s-7 1 -10 4s-4 6 -4 10s1 7 4 10zM178 129c5 5 15 5 20 0c3 -3 4 -6 4 -10s-1 -7 -4 -10s-6 -4 -10 -4s-7 1 -10 4s-4 6 -4 10s1 7 4 10zM83 99c5 5 15 5 20 0c3 -3 4 -6 4 -10s-1 -7 -4 -10s-6 -4 -10 -4s-7 1 -10 4s-4 6 -4 10s1 7 4 10zM208 99c5 5 15 5 20 0
c3 -3 4 -6 4 -10s-1 -7 -4 -10s-6 -4 -10 -4s-7 1 -10 4c-5 5 -5 15 0 20zM93 200c-4 0 -7 1 -10 4c-5 5 -5 15 0 20s15 5 20 0c3 -3 4 -6 4 -10s-1 -7 -4 -10s-6 -4 -10 -4zM305 180v55h148v-55h-148zM341 105c0 25 13 37 38 37s37 -12 37 -37s-12 -37 -37 -37
s-38 12 -38 37z" />
    <glyph glyph-name="uniF132" unicode="&#xf132;" 
d="M465 448c26 0 47 -21 47 -47v-334c0 -26 -21 -47 -47 -47h-418c-26 0 -47 21 -47 47v334c0 26 21 47 47 47h418zM493 67v334c0 15 -13 28 -28 28h-418c-15 0 -28 -13 -28 -28v-334c0 -15 13 -28 28 -28h418c15 0 28 13 28 28zM104 234c0 14 7 21 21 21s21 -7 21 -21
s-7 -21 -21 -21s-21 7 -21 21zM134 157v-25h43v-19h-43v-20h-18v20h-42v19h42v25h18zM327 370c77 0 140 -63 140 -140s-63 -139 -140 -139s-139 62 -139 139c0 35 13 68 34 92l-21 20l-151 38l5 19l155 -40l25 -24c25 22 57 35 92 35zM327 110c67 0 121 53 121 120
s-54 121 -121 121c-30 0 -57 -11 -78 -29l36 -34l-12 -14l-37 35c-18 -21 -29 -49 -29 -79c0 -67 53 -120 120 -120zM327 278c26 0 48 -22 48 -48s-22 -47 -48 -47s-47 21 -47 47s21 48 47 48zM327 202c16 0 29 12 29 28s-13 29 -29 29s-28 -13 -28 -29s12 -28 28 -28z" />
    <glyph glyph-name="uniF133" unicode="&#xf133;" 
d="M319 327l193 118v-499l-193 117v-121l-319 253l319 253v-121z" />
    <glyph glyph-name="uniF134" unicode="&#xf134;" 
d="M319 327l193 118v-499l-193 118v-122l-319 253l319 253v-121zM489 -14v418l-192 -118v115l-260 -206l260 -205v114z" />
    <glyph glyph-name="uniF135" unicode="&#xf135;" 
d="M353 296l159 97v-411l-159 97v-100l-248 196v-226h-105v499h105v-249l248 196v-99z" />
    <glyph glyph-name="uniF136" unicode="&#xf136;" 
d="M353 296l159 97v-411l-159 97v-100l-248 196v-226h-105v499h105v-249l248 197v-100zM87 -32v0v462h-69v-462h69zM493 15v344l-159 -97v95l-214 -170l214 -169v94z" />
    <glyph glyph-name="uniF137" unicode="&#xf137;" 
d="M407 448h105v-498h-105v256l-248 -197v100l-159 -97v411l159 -97v100l248 -197v219z" />
    <glyph glyph-name="uniF138" unicode="&#xf138;" 
d="M407 448h105v-498h-105v256l-248 -197v100l-159 -97v411l159 -97v100l248 -197v219zM177 48l214 170l-214 169v-95l-158 98v-344l158 97v-95zM494 -32v462h-69v-462h69z" />
    <glyph glyph-name="uniF139" unicode="&#xf139;" 
d="M318 364c62 0 112 -50 112 -112s-50 -111 -112 -111s-111 49 -111 111s49 112 111 112zM318 159c51 0 94 42 94 93s-43 94 -94 94s-93 -43 -93 -94s42 -93 93 -93zM81 428c-36 0 -39 0 -39 10s3 10 39 10s40 0 40 -10s-4 -10 -40 -10zM85 365c15 0 28 -13 28 -28
c0 -12 -7 -22 -18 -26v-170h-19v170c-11 4 -19 14 -19 26c0 15 13 28 28 28zM465 416c26 0 47 -20 47 -46v-233c0 -26 -21 -47 -47 -47h-418c-26 0 -47 21 -47 47v233c0 26 21 46 47 46h418zM493 137v233c0 15 -13 28 -28 28h-418c-15 0 -28 -13 -28 -28v-233
c0 -15 13 -28 28 -28h418c15 0 28 13 28 28z" />
    <glyph glyph-name="uniF13A" unicode="&#xf13a;" horiz-adv-x="283" 
d="M236 448c26 0 47 -21 47 -47v-418c0 -26 -21 -47 -47 -47h-189c-26 0 -47 21 -47 47v418c0 26 21 47 47 47h189zM264 -17v418c0 15 -13 28 -28 28h-189c-15 0 -28 -13 -28 -28v-418c0 -15 13 -28 28 -28h189c15 0 28 13 28 28zM41 28v325h201v-325h-201zM60 334v-288h163
v288h-163zM132 -10c0 6 3 9 9 9s10 -3 10 -9s-4 -9 -10 -9s-9 3 -9 9zM112 384v19h57v-19h-57z" />
    <glyph glyph-name="uniF13B" unicode="&#xf13b;" horiz-adv-x="351" 
d="M305 448c26 0 46 -21 46 -47v-418c0 -26 -20 -47 -46 -47h-258c-26 0 -47 21 -47 47v418c0 26 21 47 47 47h258zM333 -17v418c0 15 -13 28 -28 28h-258c-15 0 -28 -13 -28 -28v-418c0 -15 13 -28 28 -28h258c15 0 28 13 28 28zM176 237c67 0 121 -54 121 -121
s-54 -121 -121 -121s-121 54 -121 121s54 121 121 121zM176 13c57 0 102 46 102 103s-45 102 -102 102s-103 -45 -103 -102s46 -103 103 -103zM176 269c-35 0 -63 28 -63 63s28 63 63 63s63 -28 63 -63s-28 -63 -63 -63zM176 376c-24 0 -45 -20 -45 -44s21 -44 45 -44
s44 20 44 44s-20 44 -44 44zM136 116c0 26 12 38 38 38s39 -12 39 -38s-13 -39 -39 -39s-38 13 -38 39z" />
    <glyph glyph-name="uniF13C" unicode="&#xf13c;" horiz-adv-x="488" 
d="M0 -64v512h488v-512h-488z" />
    <glyph glyph-name="uniF13D" unicode="&#xf13d;" horiz-adv-x="488" 
d="M0 448h488v-512h-488v512zM469 -45v474h-450v-474h450z" />
    <glyph glyph-name="uniF13E" unicode="&#xf13e;" horiz-adv-x="413" 
d="M366 448c26 0 47 -21 47 -47v-418c0 -26 -21 -47 -47 -47h-319c-26 0 -47 21 -47 47v418c0 26 21 47 47 47h319zM394 -17v418c0 15 -13 28 -28 28h-319c-15 0 -28 -13 -28 -28v-418c0 -15 13 -28 28 -28h319c15 0 28 13 28 28zM69 9v372h275v-372h-275zM87 362v-334h239
v334h-239zM197 -19c0 6 3 9 9 9s10 -3 10 -9s-4 -10 -10 -10s-9 4 -9 10z" />
    <glyph glyph-name="uniF13F" unicode="&#xf13f;" 
d="M465 448c26 0 47 -21 47 -47v-245c0 -26 -21 -47 -47 -47h-418c-26 0 -47 21 -47 47v245c0 26 21 47 47 47h418zM493 156v245c0 15 -13 28 -28 28h-418c-15 0 -28 -13 -28 -28v-245c0 -15 13 -28 28 -28h418c15 0 28 13 28 28zM367 347c37 0 68 -31 68 -68
s-31 -68 -68 -68s-68 31 -68 68c0 19 9 37 22 49h-128c13 -12 22 -30 22 -49c0 -37 -31 -68 -68 -68s-68 31 -68 68s31 68 68 68h220zM196 279c0 27 -22 49 -49 49s-49 -22 -49 -49s22 -50 49 -50s49 23 49 50zM367 229c27 0 49 23 49 50s-22 49 -49 49s-49 -22 -49 -49
s22 -50 49 -50z" />
    <glyph glyph-name="uniF140" unicode="&#xf140;" 
d="M500 273c16 -16 16 -43 0 -59l-266 -266c-8 -8 -19 -12 -30 -12s-21 4 -29 12l-32 33c3 2 5 4 7 6c27 27 27 72 0 99c-14 14 -32 20 -50 20s-35 -6 -49 -20c-2 -2 -4 -4 -6 -7l-33 32c-16 16 -16 43 0 59l266 266c8 8 19 12 30 12s21 -4 29 -12l32 -32l-5 -5
c-27 -27 -27 -72 0 -99c14 -14 31 -21 49 -21s36 7 50 21l5 5zM488 226c5 5 7 11 7 18s-2 12 -7 17l-20 21c-15 -12 -35 -20 -55 -20c-23 0 -45 10 -61 26s-26 38 -26 61c0 20 8 40 20 55l-21 20c-5 5 -10 7 -17 7s-13 -2 -18 -7l-266 -266c-10 -10 -10 -25 0 -35l20 -21
c16 13 35 21 56 21c23 0 46 -9 62 -25s25 -39 25 -62c0 -21 -8 -40 -21 -56l21 -20c5 -5 10 -7 17 -7s13 2 18 7zM121 215c0 11 6 17 17 17s16 -6 16 -17s-5 -17 -16 -17s-17 6 -17 17zM156 180c0 11 6 16 17 16s17 -5 17 -16s-6 -17 -17 -17s-17 6 -17 17zM192 144
c0 11 5 17 16 17s17 -6 17 -17s-6 -16 -17 -16s-16 5 -16 16zM227 109c0 11 6 17 17 17s16 -6 16 -17s-5 -17 -16 -17s-17 6 -17 17zM262 74c0 11 6 16 17 16s17 -5 17 -16s-6 -17 -17 -17s-17 6 -17 17z" />
    <glyph glyph-name="uniF141" unicode="&#xf141;" horiz-adv-x="238" 
d="M228 174c14 -28 14 -60 -3 -86c-12 -18 -31 -32 -53 -40c4 -13 8 -27 12 -41c12 -42 -11 -58 -22 -64c-9 -5 -18 -7 -28 -7c-17 0 -34 7 -43 18c-6 7 -17 27 8 57l14 -11c-8 -10 -16 -24 -7 -35s32 -14 48 -6c14 8 18 22 12 43c-4 14 -8 28 -12 41c-18 -4 -36 -4 -55 -1
c-50 9 -85 42 -96 89c-14 62 31 115 71 163c2 2 3 4 5 6c-1 3 -1 5 -2 8c-26 90 -4 122 7 132c10 9 24 10 36 5c18 -8 29 -29 29 -55c0 -31 -22 -62 -49 -94c8 -29 15 -54 22 -77c8 3 18 5 29 4c33 -2 62 -20 77 -49zM96 426c-13 -11 -21 -46 -3 -109c21 26 37 51 37 73
s-10 34 -18 38c-2 1 -4 2 -6 2c-3 0 -7 -1 -10 -4zM102 60c16 -3 32 -3 47 0c-9 32 -19 65 -30 104c-3 9 -5 17 -8 27c-8 -7 -13 -15 -15 -23c-5 -16 -1 -36 16 -46l-9 -16c-23 13 -32 40 -24 67c4 13 12 27 26 37c-6 21 -12 44 -19 69c-38 -46 -78 -92 -66 -144
c9 -40 39 -67 82 -75zM209 98c13 20 14 45 3 67c-12 23 -34 38 -61 39c-9 0 -17 -1 -24 -3c3 -11 7 -22 10 -32c11 -39 21 -72 30 -104c18 7 33 18 42 33z" />
    <glyph glyph-name="uniF142" unicode="&#xf142;" 
d="M254 334c34 38 77 7 77 -30c0 -44 -76 -76 -77 -103c0 27 -76 60 -76 103c0 35 34 68 76 30zM465 448c26 0 47 -21 47 -47v-232c0 -26 -21 -47 -47 -47h-200v-51h103v-18h-224v18h103v51h-200c-26 0 -47 21 -47 47v232c0 26 21 47 47 47h418zM493 169v232
c0 15 -13 28 -28 28h-418c-15 0 -28 -13 -28 -28v-232c0 -15 13 -28 28 -28h418c15 0 28 13 28 28z" />
    <glyph glyph-name="uniF143" unicode="&#xf143;" 
d="M465 448c26 0 47 -21 47 -47v-232c0 -26 -21 -47 -47 -47h-200v-51h103v-18h-224v18h103v51h-200c-26 0 -47 21 -47 47v232c0 26 21 47 47 47h418zM493 169v232c0 15 -13 28 -28 28h-418c-15 0 -28 -13 -28 -28v-232c0 -15 13 -28 28 -28h418c15 0 28 13 28 28zM265 272
l-78 7l150 67l-66 -150z" />
    <glyph glyph-name="uniF144" unicode="&#xf144;" 
d="M209 218v137l118 -68zM465 448c26 0 47 -21 47 -47v-232c0 -26 -21 -47 -47 -47h-200v-51h103v-18h-224v18h103v51h-200c-26 0 -47 21 -47 47v232c0 26 21 47 47 47h418zM493 169v232c0 15 -13 28 -28 28h-418c-15 0 -28 -13 -28 -28v-232c0 -15 13 -28 28 -28h418
c15 0 28 13 28 28z" />
    <glyph glyph-name="uniF145" unicode="&#xf145;" 
d="M283 312l66 -3l-53 -43l19 -63l-56 35l-56 -35l19 63l-54 43l67 3l24 63zM465 448c26 0 47 -21 47 -47v-232c0 -26 -21 -47 -47 -47h-200v-51h103v-18h-224v18h103v51h-200c-26 0 -47 21 -47 47v232c0 26 21 47 47 47h418zM493 169v232c0 15 -13 28 -28 28h-418
c-15 0 -28 -13 -28 -28v-232c0 -15 13 -28 28 -28h418c15 0 28 13 28 28z" />
    <glyph glyph-name="uniF146" unicode="&#xf146;" 
d="M465 448c26 0 47 -21 47 -47v-232c0 -26 -21 -47 -47 -47h-200v-51h103v-18h-224v18h103v51h-200c-26 0 -47 21 -47 47v232c0 26 21 47 47 47h418zM493 169v232c0 15 -13 28 -28 28h-418c-15 0 -28 -13 -28 -28v-232c0 -15 13 -28 28 -28h418c15 0 28 13 28 28z" />
    <glyph glyph-name="uniF147" unicode="&#xf147;" horiz-adv-x="427" 
d="M379 192c26 0 48 -21 48 -47v-162c0 -26 -22 -47 -48 -47h-332c-26 0 -47 21 -47 47v162c0 26 21 47 47 47h63c6 7 41 46 65 46h28v172l-46 -46l-14 13l70 71l71 -71l-14 -13l-47 47v-173h28c24 0 59 -39 65 -46h63zM408 -17v162c0 16 -13 28 -29 28h-71l-6 6
c-21 24 -43 40 -51 40h-76c-8 0 -30 -16 -51 -40l-5 -6h-72c-16 0 -28 -12 -28 -28v-162c0 -16 12 -28 28 -28h332c16 0 29 12 29 28zM213 148c44 0 80 -36 80 -80s-36 -80 -80 -80s-80 36 -80 80s36 80 80 80zM213 7c34 0 61 27 61 61s-27 61 -61 61s-61 -27 -61 -61
s27 -61 61 -61z" />
    <glyph glyph-name="uniF148" unicode="&#xf148;" 
d="M491 294c56 -130 -3 -281 -133 -337s-281 3 -337 133s3 281 133 337s281 -3 337 -133zM118 236c10 -4 23 2 28 5c10 23 26 42 49 55c5 7 12 19 11 28c-1 4 -10 8 -18 10c-11 3 -24 7 -26 19c-2 13 11 20 21 26c4 2 13 7 13 10c-1 6 -17 16 -31 21v1c-1 0 -3 0 -4 -1
c-54 -24 -94 -65 -118 -114v0c2 -15 8 -34 14 -36c3 0 10 8 13 11c8 9 18 20 30 15c11 -4 12 -18 13 -30c1 -8 1 -18 5 -20zM162 151c22 -52 83 -75 135 -53s76 83 53 135c-22 52 -83 75 -135 53s-75 -83 -53 -135zM351 -26c59 26 101 72 124 127c-5 9 -13 22 -21 25
c-4 1 -12 -6 -17 -12c-8 -8 -17 -18 -29 -14s-13 19 -13 31c0 5 -1 15 -3 17c-6 2 -22 -8 -33 -18c-12 -21 -31 -39 -55 -49c-1 -1 -3 -1 -4 -1c-7 -13 -13 -31 -10 -36c2 -2 13 0 17 1c11 2 26 5 33 -6c6 -10 -1 -21 -8 -31c-4 -7 -10 -16 -8 -20c5 -8 18 -12 26 -14h1z
M304 213c12 -27 0 -57 -27 -69s-57 0 -69 27s0 57 27 69s57 0 69 -27zM270 161c17 7 24 28 17 45s-28 24 -45 17c-17 -8 -24 -28 -17 -45s28 -25 45 -17z" />
    <glyph glyph-name="uniF149" unicode="&#xf149;" 
d="M292 286c0 -21 -17 -38 -38 -38s-38 17 -38 38s17 37 38 37s38 -16 38 -37zM256 448c141 0 256 -159 256 -159s-115 -169 -256 -169s-256 169 -256 169s115 159 256 159zM163 285c0 -51 42 -93 93 -93s93 42 93 93s-42 93 -93 93s-93 -42 -93 -93z" />
    <glyph glyph-name="uniF14A" unicode="&#xf14a;" 
d="M256 448c141 0 256 -159 256 -159s-115 -169 -256 -169s-256 169 -256 169s115 159 256 159zM256 139c110 0 206 113 233 149c-28 34 -123 141 -233 141s-205 -107 -233 -141c27 -36 123 -149 233 -149zM256 396c62 0 111 -49 111 -111s-49 -112 -111 -112
s-112 50 -112 112s50 111 112 111zM256 192c51 0 93 42 93 93s-42 93 -93 93s-93 -42 -93 -93s42 -93 93 -93zM254 323c21 0 38 -16 38 -37s-17 -38 -38 -38s-38 17 -38 38s17 37 38 37zM254 267c11 0 19 8 19 19c0 10 -8 19 -19 19s-19 -9 -19 -19c0 -11 8 -19 19 -19z" />
    <glyph glyph-name="uniF14B" unicode="&#xf14b;" 
d="M46 314h34l199 134v-467l-198 139h-35c-26 0 -46 20 -46 46v101c0 26 20 47 46 47zM74 139v156h-28c-15 0 -27 -13 -27 -28v-101c0 -15 12 -27 27 -27h28zM93 300v-165l167 -119v397zM336 280c17 -16 29 -38 29 -63c0 -24 -10 -47 -26 -62l-11 17c11 12 18 28 18 45
c0 19 -8 35 -20 47zM427 274c15 -29 18 -63 8 -95c-7 -23 -21 -42 -38 -57l-10 16c14 12 25 28 31 47c9 27 6 55 -7 80c-6 13 -15 23 -26 32l10 16c13 -11 24 -24 32 -39zM493 293c20 -40 25 -85 11 -127c-10 -33 -30 -61 -56 -81l-10 16c22 18 39 42 48 71
c12 38 9 78 -9 113c-10 19 -23 35 -40 48l10 16c19 -15 35 -34 46 -56z" />
    <glyph glyph-name="uniF14C" unicode="&#xf14c;" horiz-adv-x="483" 
d="M51 301h36l218 147v-512l-216 153h-38c-28 0 -51 23 -51 51v110c0 28 23 51 51 51zM81 109v172h-30c-17 0 -31 -14 -31 -31v-110c0 -17 14 -31 31 -31h30zM285 -25v435l-183 -124v-181zM368 264c19 -17 32 -41 32 -69c0 -26 -11 -50 -29 -67l-11 17c12 13 19 31 19 50
c0 20 -8 39 -22 52zM468 257c17 -32 20 -69 9 -104c-8 -25 -23 -46 -42 -62l-11 17c15 13 26 31 33 51c9 29 7 62 -7 89c-7 14 -16 25 -28 35l11 17c14 -12 26 -26 35 -43z" />
    <glyph glyph-name="uniF14D" unicode="&#xf14d;" horiz-adv-x="400" 
d="M51 301h36l218 147v-512l-216 153h-38c-28 0 -51 23 -51 51v110c0 28 23 51 51 51zM81 109v172h-30c-17 0 -31 -14 -31 -31v-110c0 -17 14 -31 31 -31h30zM102 286v-181l183 -130v435zM368 264c19 -17 32 -41 32 -69c0 -26 -11 -50 -29 -67l-11 17c12 13 19 31 19 50
c0 20 -8 39 -22 52z" />
    <glyph glyph-name="uniF14E" unicode="&#xf14e;" horiz-adv-x="305" 
d="M87 301l218 147v-512l-216 153h-38c-28 0 -51 23 -51 51v110c0 28 23 51 51 51h36zM81 109v172h-30c-17 0 -31 -14 -31 -31v-110c0 -17 14 -31 31 -31h30zM285 -25v435l-183 -124v-181z" />
    <glyph glyph-name="uniF14F" unicode="&#xf14f;" 
d="M0 -13v19h133v-19h-133zM190 -13v19h132v-19h-132zM379 -13v19h133v-19h-133zM0 62v19h133v-19h-133zM190 62v19h132v-19h-132zM379 62v19h133v-19h-133zM0 136v19h133v-19h-133zM0 211v19h133v-19h-133zM0 286v18h133v-18h-133zM0 357v19h133v-19h-133zM0 429v19h133
v-19h-133zM190 136v19h132v-19h-132zM379 136v19h133v-19h-133zM379 211v19h133v-19h-133zM379 286v18h133v-18h-133z" />
    <glyph glyph-name="uniF150" unicode="&#xf150;" 
d="M47 311h35l203 137v-478l-202 143h-36c-26 0 -47 21 -47 47v103c0 26 21 48 47 48zM76 132v160h-29c-16 0 -28 -13 -28 -29v-103c0 -16 12 -28 28 -28h29zM95 297v-169l171 -121v405zM512 274l-60 -60l60 -61l-13 -13l-61 60l-60 -60l-13 13l60 61l-60 60l13 13l60 -60
l61 60z" />
  </font>
</defs>
</svg>
